DMB2019-09-13.siriusxm.web.flac16 (Unknown) - Antsmarching.org Forums - Dave Matthews Band Discussion
Old 03-21-2020, 03:02 PM   #1
fast_gti
 
Join Date: Apr 2015
Location: Dallas, TX
Posts: 606

Shows Seen: 10

DMB Hub Stubs: 5

My Tour Central Stats

DMB2019-09-13.siriusxm.web.flac16 (Unknown)

View this show in Tour Central

Dave Matthews Band
September 13, 2019
Ak-Chin Pavilion
Phoenix, AZ

Source: SiriusXM HLS "Extreme" quality stream > ffmpeg-20190722-817235b-win64-static
Conversion: Decompress AAC to WAV via ffmpeg-20190722-817235b-win64-static > CD Wave Editor 1.97 (Tracking) > foobar2000 (Tagging, conversion to FLAC Level 8)

01: Introduction
02: Louisiana Bayou
03: Satellite
04: Come Tomorrow
05: Anyone Seen the Bridge
06: Fly Like an Eagle
07: Rooftop
08: Crush
09: Do You Remember
10: Lying in the Hands of God
11: Kill the Preacher [partial]
12: Don't Drink the Water
13: Warehouse
14: Lover Lay Down
15: Can't Stop
16: Sledgehammer
17: Here On Out
18: Tripping Billies
19: Where Are You Going
20: You Might Die Trying
21: Everyday
22: Encore Break
23: Granny
24: Ants Marching
25: Outro

Compiled on 9/19/2019

Notes: Original media info for ADTS format AAC prior to conversion to FLAC for distribution is included below for reference. No further "lossy" conversions took place in processing this capture.

General
Complete name : dmb2019-09-13.aac
Format : ADTS
Format/Info : Audio Data Transport Stream
File size : 303 MiB
Overall bit rate mode : Variable

Audio
Format : AAC
Format/Info : Advanced Audio Codec
Format version : Version 4
Format profile : LC
Bit rate mode : Variable
Channel(s) : 2 channels
Channel positions : Front: L R
Sampling rate : 44.1 kHz
Frame rate : 43.066 FPS (1024 spf)
Compression mode : Lossy
Stream size : 303 MiB (100%)

Fingerprint/MD5:
768581a8cb4e024cf3c602db290b8409 *dmb2019-09-13t01.flac
22e9dedc512783b940c22a49a29742fd *dmb2019-09-13t02.flac
5401256317c877dacb2b47a72b536178 *dmb2019-09-13t03.flac
dbcf6b8353c5f5d38a7530632c5f4a50 *dmb2019-09-13t04.flac
ae465ac704661ba637fb11eafe16eebf *dmb2019-09-13t05.flac
c375d00a5a295cd469f498bb236a9719 *dmb2019-09-13t06.flac
b407c6022f7baf93a13dd3b4fa9297c8 *dmb2019-09-13t07.flac
fe12a6248d101d105f79e7b866d9d7af *dmb2019-09-13t08.flac
26e6079cd4cbe181ff15bed0a3c68691 *dmb2019-09-13t09.flac
d4268aa7febe9f324b2408c1865ec5da *dmb2019-09-13t10.flac
62dfa154bac701781125c6009da6e257 *dmb2019-09-13t11.flac
fc5c25634de76e3dc38555255d57f969 *dmb2019-09-13t12.flac
8fa41dd851822b7c25067691bcb3ed16 *dmb2019-09-13t13.flac
9824de9be6cf3790e6aebfae41f6d182 *dmb2019-09-13t14.flac
1f36949f5c7580f8e68a056f1db7a032 *dmb2019-09-13t15.flac
bb5da48f61a68c9a339c41bf018ccbf6 *dmb2019-09-13t16.flac
81961d84afd6ef444ab563df7ab401aa *dmb2019-09-13t17.flac
5aa16431cc002bf1a16c6a926497eb8c *dmb2019-09-13t18.flac
68f91171601d6d358d003d767ca30c10 *dmb2019-09-13t19.flac
02e28ade0168d3f0eaef72c21938ccde *dmb2019-09-13t20.flac
d326e8a03b5ad242c919e47d5e218065 *dmb2019-09-13t21.flac
3dcc8ff432ca413bccb97017f107ebfb *dmb2019-09-13t22.flac
2713bacf1b356445767d9e9bd91648d1 *dmb2019-09-13t23.flac
92f384481c2750b4a26189672bb0ea9e *dmb2019-09-13t24.flac
10544a19df4df1964b9ea987b34f08e5 *dmb2019-09-13t25.flac

Need help downloading? Watch the video below:




Download here:
Attached Files
File Type: torrent dmb2019-09-13.siriusxm.web-dl.flac16.torrent (19.9 KB, 0 views) , size: 929.49 mb , seeders: 1 , completed: 62
Name Size
Name Ratio Completed Left Uploaded Up Speed Downloaded Last Announce
fast_gti is offline   Reply With Quote

  • Want to hide all ads on Ants? Click here
  • Old 11-22-2023, 07:27 PM   #2
    warewolf95
    Registered User
     
    Join Date: Nov 2023
    Posts: 1

    Shows Seen: 0

    DMB Hub Stubs: 0

    My Tour Central Stats

    Re: DMB2019-09-13.siriusxm.web.flac16 (Unknown)

    Quote:
    Originally Posted by fast_gti View Post
    View this show in Tour Central

    Dave Matthews Band
    September 13, 2019
    Ak-Chin Pavilion
    Phoenix, AZ

    Source: SiriusXM HLS "Extreme" quality stream > ffmpeg-20190722-817235b-win64-static
    Conversion: Decompress AAC to WAV via ffmpeg-20190722-817235b-win64-static > CD Wave Editor 1.97 (Tracking) > foobar2000 (Tagging, conversion to FLAC Level 8)

    01: Introduction
    02: Louisiana Bayou
    03: Satellite
    04: Come Tomorrow
    05: Anyone Seen the Bridge
    06: Fly Like an Eagle
    07: Rooftop
    08: Crush
    09: Do You Remember
    10: Lying in the Hands of God
    11: Kill the Preacher [partial]
    12: Don't Drink the Water
    13: Warehouse
    14: Lover Lay Down
    15: Can't Stop
    16: Sledgehammer
    17: Here On Out
    18: Tripping Billies
    19: Where Are You Going
    20: You Might Die Trying
    21: Everyday
    22: Encore Break
    23: Granny
    24: Ants Marching
    25: Outro

    Compiled on 9/19/2019

    Notes: Original media info for ADTS format AAC prior to conversion to FLAC for distribution is included below for reference. No further "lossy" conversions took place in processing this capture.

    General
    Complete name : dmb2019-09-13.aac
    Format : ADTS
    Format/Info : Audio Data Transport Stream
    File size : 303 MiB
    Overall bit rate mode : Variable

    Audio
    Format : AAC
    Format/Info : Advanced Audio Codec
    Format version : Version 4
    Format profile : LC
    Bit rate mode : Variable
    Channel(s) : 2 channels
    Channel positions : Front: L R
    Sampling rate : 44.1 kHz
    Frame rate : 43.066 FPS (1024 spf)
    Compression mode : Lossy
    Stream size : 303 MiB (100%)

    Fingerprint/MD5:
    768581a8cb4e024cf3c602db290b8409 *dmb2019-09-13t01.flac
    22e9dedc512783b940c22a49a29742fd *dmb2019-09-13t02.flac
    5401256317c877dacb2b47a72b536178 *dmb2019-09-13t03.flac
    dbcf6b8353c5f5d38a7530632c5f4a50 *dmb2019-09-13t04.flac
    ae465ac704661ba637fb11eafe16eebf *dmb2019-09-13t05.flac
    c375d00a5a295cd469f498bb236a9719 *dmb2019-09-13t06.flac
    b407c6022f7baf93a13dd3b4fa9297c8 *dmb2019-09-13t07.flac
    fe12a6248d101d105f79e7b866d9d7af *dmb2019-09-13t08.flac
    26e6079cd4cbe181ff15bed0a3c68691 *dmb2019-09-13t09.flac
    d4268aa7febe9f324b2408c1865ec5da *dmb2019-09-13t10.flac
    62dfa154bac701781125c6009da6e257 *dmb2019-09-13t11.flac
    fc5c25634de76e3dc38555255d57f969 *dmb2019-09-13t12.flac
    8fa41dd851822b7c25067691bcb3ed16 *dmb2019-09-13t13.flac
    9824de9be6cf3790e6aebfae41f6d182 *dmb2019-09-13t14.flac
    1f36949f5c7580f8e68a056f1db7a032 *dmb2019-09-13t15.flac
    bb5da48f61a68c9a339c41bf018ccbf6 *dmb2019-09-13t16.flac
    81961d84afd6ef444ab563df7ab401aa *dmb2019-09-13t17.flac
    5aa16431cc002bf1a16c6a926497eb8c *dmb2019-09-13t18.flac
    68f91171601d6d358d003d767ca30c10 *dmb2019-09-13t19.flac
    02e28ade0168d3f0eaef72c21938ccde *dmb2019-09-13t20.flac
    d326e8a03b5ad242c919e47d5e218065 *dmb2019-09-13t21.flac
    3dcc8ff432ca413bccb97017f107ebfb *dmb2019-09-13t22.flac
    2713bacf1b356445767d9e9bd91648d1 *dmb2019-09-13t23.flac
    92f384481c2750b4a26189672bb0ea9e *dmb2019-09-13t24.flac
    10544a19df4df1964b9ea987b34f08e5 *dmb2019-09-13t25.flac

    Need help downloading? Watch the video below:




    Download here:
    First post here. I managed to grab "most" of the Sirius broadcasts from other sites, but this one is totally new to me. Thank you so much! So glad I found this place! Brand new fan just soaking it all in!
    warewolf95 is offline   Reply With Quote
    Reply
    Thread Tools
    Display Modes

    Posting Rules
    You may not post new threads
    You may not post replies
    You may not post attachments
    You may not edit your posts

    BB code is On
    Smilies are On
    [IMG] code is Off
    HTML code is On

    Forum Jump


    Want to hide all ads on Ants? Click here

    All times are GMT -7. The time now is 10:03 PM.


    Powered by vBulletin® Version 3.8.14
    Copyright ©2000 - 2024, vBulletin Solutions Inc.


       
    Site LinksAbout AntsAnts MobileTweet Tweet
    Home
    Ants+
    Tour Central
    Search bar
    RSS Feeds
    About Us
    Contact Us
    The Ants Blog
    Advertise on Ants
    Privacy Policy
    Ants on your cell phone
    iAnts
    mobile news
    mobile setlists
    antslive!
    Ants' Twitter
    DMBLive Twitter
    Ants Facebook
    Ants Instagram