DMB2011-07-09.CCM4.flac16 (Crumbo) - Antsmarching.org Forums
Old 06-09-2014, 07:44 PM   #1
MtSkier
#trynottosuck
 
MtSkier's Avatar
 
Join Date: Jun 2009
Location: Chicago
Posts: 11,676

Shows Seen: 35

DMB2011-07-09.CCM4.flac16 (Crumbo)

View this show in Tour Central

Dave Matthews Band
Lakeside - South Works Stage
Chicago, IL
DMB Caravan 2011
July 9, 2011


Taper: Crumbo
Location: VIP, SBD, Just ROC
Source: Schoeps CCM4 (DINa, ~17') > Sound Devices 722(24/48)
Conversion: Sound Devices 722 > Wavelab 6.11 (resample, dither w/MegaBitMax) > CDWav 1.98 > xACT 0.5.9 > foobar2000


***DO NOT DISTRIBUTE IN LOSSY FORMATS***
***24/48 Version exists in flac format***


01 Intro 02:36.63
02 #41 12:06.23
03 Seven 05:23.14
04 Burning Down The House 04:48.47
05 Break Free 05:47.62
06 Why I Am 04:53.29
07 Proudest Monkey > 07:46.41
08 Satellite 05:32.33
09 Black Jack 07:29.28
10 Crush 15:10.33
11 Granny 05:03.26
12 Lying In the Hands of God > 14:05.25
13 Alligator Pie 06:38.41
14 Lie In Our Graves 12:43.68
15 Too Much 06:06.23
16 Crash Into Me 07:10.32
17 Grey Street 05:04.39
18 Encore Break 04:01.05
19 A Whiter Shade of Pale * 05:38.03
20 Time Bomb > 05:54.51
21 Two Step 15:39.63

Total: 159:40.74



Notes:


+ Dave Solo
-Thanks to Mike, Jon and the wall of blockers.

Compiled by Crumbo 7-10-2011.

Fingerprint/MD5:
length expanded size cdr WAVE problems filename
2:36.63 27666620 --- -- ---xx dmb2011-07-09.ccm4.t01.flac
12:06.23 128120540 --- -- ---xx dmb2011-07-09.ccm4.t02.flac
5:23.14 57010172 --- -- ---xx dmb2011-07-09.ccm4.t03.flac
4:48.47 50913788 --- -- ---xx dmb2011-07-09.ccm4.t04.flac
5:47.62 61356668 --- -- ---xx dmb2011-07-09.ccm4.t05.flac
4:53.29 51753452 --- -- ---xx dmb2011-07-09.ccm4.t06.flac
7:46.41 82298876 --- -- ---xx dmb2011-07-09.ccm4.t07.flac
5:32.33 58642460 --- -- ---xx dmb2011-07-09.ccm4.t08.flac
7:29.28 79269500 --- -- ---xx dmb2011-07-09.ccm4.t09.flac
15:10.33 160601660 --- -- ---xx dmb2011-07-09.ccm4.t10.flac
5:03.26 53510396 --- -- ---xx dmb2011-07-09.ccm4.t11.flac
14:05.25 149116844 --- -- ---xx dmb2011-07-09.ccm4.t12.flac
6:38.41 70303676 --- -- ---xx dmb2011-07-09.ccm4.t13.flac
12:43.68 134753180 --- -- ---xx dmb2011-07-09.ccm4.t14.flac
6:06.23 64616540 --- -- ---xx dmb2011-07-09.ccm4.t15.flac
7:10.32 75927308 --- -- ---xx dmb2011-07-09.ccm4.t16.flac
5:04.39 53717372 --- -- ---xx dmb2011-07-09.ccm4.t17.flac
4:01.05 42524204 --- -- ---xx dmb2011-07-09.ccm4.t18.flac
5:38.03 59630300 --- -- ---xx dmb2011-07-09.ccm4.t19.flac
5:54.51 62565596 --- -- ---xx dmb2011-07-09.ccm4.t20.flac
15:39.63 165787820 --- -- ---xx dmb2011-07-09.ccm4.t21.flac
159:40.74 1690086972 B (totals for 21 files, 0.4863 overall compression ratio)
Attached Files
File Type: torrent dmb2011-07-09.ccm4.flac16.torrent (32.2 KB, 0 views) , size: 783.80 mb , seeders: 2 , completed: 87
Name Size
Name Ratio Completed Left Uploaded Up Speed Downloaded Last Announce
MtSkier is offline   Reply With Quote

  • Want to hide all ads on Ants? Click here
  • Reply

    Thread Tools
    Display Modes

    Posting Rules
    You may not post new threads
    You may not post replies
    You may not post attachments
    You may not edit your posts

    BB code is On
    Smilies are On
    [IMG] code is Off
    HTML code is On

    Forum Jump


    Want to hide all ads on Ants? Click here

    All times are GMT -4. The time now is 12:41 PM.


    Powered by vBulletin® Version 3.8.6
    Copyright ©2000 - 2021, Jelsoft Enterprises Ltd.


       
    Site LinksAbout AntsAnts MobileTweet Tweet
    Home
    Ants+
    Tour Central
    Search bar
    RSS Feeds
    About Us
    Contact Us
    The Ants Blog
    Advertise on Ants
    Privacy Policy
    Ants on your cell phone
    iAnts
    mobile news
    mobile setlists
    antslive!
    Ants' Twitter
    DMBLive Twitter
    Ants Facebook
    Ants Instagram