DMB2011-07-10.CCM4.flac16 (Crumbo) - Antsmarching.org Forums
Old 06-09-2014, 07:48 PM   #1
MtSkier
#trynottosuck
 
MtSkier's Avatar
 
Join Date: Jun 2009
Location: Chicago
Posts: 11,676

Shows Seen: 35

DMB2011-07-10.CCM4.flac16 (Crumbo)

View this show in Tour Central

Dave Matthews Band
Lakeside - South Works Stage
Chicago, IL
DMB Caravan 2011
July 10, 2011


Taper: Crumbo
Location: VIP, SBD, Just ROC \m/ \m/
Source: Schoeps CCM4 (DINa, ~17') > Sound Devices 722(24/48)
Conversion: Sound Devices 722 > Wavelab 6.11 (resample, dither w/MegaBitMax) > CDWav 1.98 > xACT 0.5.9 > foobar2000


***DO NOT DISTRIBUTE IN LOSSY FORMATS***
***24/48 Version exists in flac format***


01 Intro 01:29.52
02 One Sweet World 08:02.14
03 Bartender 14:59.51
04 Say Goodbye 12:04.08
05 Best of Whats Around 07:18.67
06 Captain 04:01.19
07 Shotgun 07:33.28
08 Warehouse 10:49.45
09 Spaceman 07:29.67
10 Seek Up 19:02.12
11 When The World Ends 05:50.65
12 Rhyme And Reason * > 07:20.69
13 Sweet Emotion * 05:41.67
14 The Idea Of You 04:54.20
15 Buena 04:46.25
16 Gravedigger 05:08.37
17 Cant Stop 06:12.34
18 All Along The Watchtower 09:28.39
19 Encore Break 02:56.66
20 Some Devil + 06:46.59
21 Sister 04:49.33
22 Ants Marching > 08:04.69
23 Thank You (Falettinme Be Mice Elf Agin) 09:15.05

Total: 174:07.51


Notes:

* Joe Motherfuckin' Lawlor!
+ Dave Solo
-Thanks to Mike, Jon and the wall of blockers.

Compiled by Crumbo 7-11-2011.

Fingerprint/MD5:
length expanded size cdr WAVE problems filename
1:29.52 15821948 --- -- ---xx dmb2011-07-10.ccm4.t01.flac
8:02.14 85057772 --- -- ---xx dmb2011-07-10.ccm4.t02.flac
14:59.51 158703596 --- -- ---xx dmb2011-07-10.ccm4.t03.flac
12:04.08 127732460 --- -- ---xx dmb2011-07-10.ccm4.t04.flac
7:18.67 77420828 --- -- ---xx dmb2011-07-10.ccm4.t05.flac
4:01.19 42557132 --- -- ---xx dmb2011-07-10.ccm4.t06.flac
7:33.28 79975100 --- -- ---xx dmb2011-07-10.ccm4.t07.flac
10:49.45 114589484 --- -- ---xx dmb2011-07-10.ccm4.t08.flac
7:29.67 79361228 --- -- ---xx dmb2011-07-10.ccm4.t09.flac
19:02.12 201477068 --- -- ---xx dmb2011-07-10.ccm4.t10.flac
5:50.65 61892924 --- -- ---xx dmb2011-07-10.ccm4.t11.flac
7:20.69 77778332 --- -- ---xx dmb2011-07-10.ccm4.t12.flac
5:41.67 60310028 --- -- ---xx dmb2011-07-10.ccm4.t13.flac
4:54.20 51908684 --- -- ---xx dmb2011-07-10.ccm4.t14.flac
4:46.25 50509244 --- -- ---xx dmb2011-07-10.ccm4.t15.flac
5:08.37 54418268 --- -- ---xx dmb2011-07-10.ccm4.t16.flac
6:12.34 65700812 --- -- ---xx dmb2011-07-10.ccm4.t17.flac
9:28.39 100286972 --- -- ---xx dmb2011-07-10.ccm4.t18.flac
2:56.66 31201676 --- -- ---xx dmb2011-07-10.ccm4.t19.flac
6:46.59 71757212 --- -- ---xx dmb2011-07-10.ccm4.t20.flac
4:49.33 51057260 --- -- ---xx dmb2011-07-10.ccm4.t21.flac
8:04.69 85539932 --- -- ---xx dmb2011-07-10.ccm4.t22.flac
9:15.05 97913804 --- -- ---xx dmb2011-07-10.ccm4.t23.flac
174:07.51 1842971764 B (totals for 23 files, 0.4980 overall compression ratio)
Attached Files
File Type: torrent dmb2011-07-10.ccm4.flac16.torrent (35.9 KB, 0 views) , size: 875.32 mb , seeders: 2 , completed: 105
Name Size
Name Ratio Completed Left Uploaded Up Speed Downloaded Last Announce
MtSkier is offline   Reply With Quote

  • Want to hide all ads on Ants? Click here
  • Old 01-14-2016, 12:33 AM   #2
    pawlywally
     
    Join Date: Jul 2015
    Posts: 6

    Shows Seen: 29

    Re: DMB2011-07-10.CCM4.flac16 (Crumbo)

    Thank you
    pawlywally is offline   Reply With Quote
    Reply
    Thread Tools
    Display Modes

    Posting Rules
    You may not post new threads
    You may not post replies
    You may not post attachments
    You may not edit your posts

    BB code is On
    Smilies are On
    [IMG] code is Off
    HTML code is On

    Forum Jump


    Want to hide all ads on Ants? Click here

    All times are GMT -4. The time now is 05:26 AM.


    Powered by vBulletin® Version 3.8.6
    Copyright ©2000 - 2021, Jelsoft Enterprises Ltd.


       
    Site LinksAbout AntsAnts MobileTweet Tweet
    Home
    Ants+
    Tour Central
    Search bar
    RSS Feeds
    About Us
    Contact Us
    The Ants Blog
    Advertise on Ants
    Privacy Policy
    Ants on your cell phone
    iAnts
    mobile news
    mobile setlists
    antslive!
    Ants' Twitter
    DMBLive Twitter
    Ants Facebook
    Ants Instagram