DMB2011-07-08.CCM4.flac16 (Crumbo) - Antsmarching.org Forums
Old 06-08-2014, 03:16 PM   #1
MtSkier
#trynottosuck
 
MtSkier's Avatar
 
Join Date: Jun 2009
Location: Chicago
Posts: 11,669

Shows Seen: 31

DMB2011-07-08.CCM4.flac16 (Crumbo)

View this show in Tour Central

Dave Matthews Band
Lakeside - South Works Stage
Chicago, IL
DMB Caravan 2011
July 8, 2011


Taper: Crumbo
Location: VIP, SBD, Just ROC
Source: Schoeps CCM4 (DINa, ~17') > Sound Devices 722(24/48)
Conversion: Sound Devices 722 > Wavelab 6.11 (resample, dither w/MegaBitMax) > CDWav 1.98 > xACT 0.5.9 > foobar2000


***DO NOT DISTRIBUTE IN LOSSY FORMATS***
***24/48 Version exists in flac format***


01 Intro 02:32.05
02 Squirm 06:02.20
03 Big Eyed Fish > 06:09.00
04 Don't Drink the Water 07:10.22
05 Pantala Naga Pampa > Rapunzel 08:26.63
06 Write a Song 05:45.59
07 You Might Die Trying 09:32.33
08 Out of My Hands 05:59.34
09 Louisiana Bayou 07:55.70
10 Funny the Way It Is 07:38.57
11 Joyride 05:06.73
12 Corn Bread 08:14.49
13 What Would You Say 07:13.74
14 Dive In 05:35.17
15 You & Me 05:45.70
16 Good Times Bad Times 03:06.00
17 Tripping Billies 06:45.57
18 Encore Break 02:50.02
19 Intro to... > 00:33.60
20 Sweet + 05:15.37
21 Stay or Leave 04:55.73
22 Jimi Thing 16:20.37
23 Shake Me Like a Monkey 04:23.62
24 Stay (Wasting Time) 06:44.00

Total: 150:04.74


Notes:

+ Dave Solo
-Thanks to Mike, Jon and the wall of blockers.

Compiled by Crumbo 7-09-2011.

Fingerprint/MD5:
length expanded size cdr WAVE problems filename
2:32.05 26824604 --- -- ---xx dmb2011-07-08.ccm4.t01.flac
6:02.20 63903884 --- -- ---xx dmb2011-07-08.ccm4.t02.flac
6:09.00 65091644 --- -- ---xx dmb2011-07-08.ccm4.t03.flac
7:10.22 75903788 --- -- ---xx dmb2011-07-08.ccm4.t04.flac
8:26.63 89406620 --- -- ---xx dmb2011-07-08.ccm4.t05.flac
5:45.59 60996812 --- -- ---xx dmb2011-07-08.ccm4.t06.flac
9:32.33 100978460 --- -- ---xx dmb2011-07-08.ccm4.t07.flac
5:59.34 63407612 --- -- ---xx dmb2011-07-08.ccm4.t08.flac
7:55.70 83954684 --- -- ---xx dmb2011-07-08.ccm4.t09.flac
7:38.57 80925308 --- -- ---xx dmb2011-07-08.ccm4.t10.flac
5:06.73 54150140 --- -- ---xx dmb2011-07-08.ccm4.t11.flac
8:14.49 87256892 --- -- ---xx dmb2011-07-08.ccm4.t12.flac
7:13.74 76555292 --- -- ---xx dmb2011-07-08.ccm4.t13.flac
5:35.17 59134028 --- -- ---xx dmb2011-07-08.ccm4.t14.flac
5:45.70 61022684 --- -- ---xx dmb2011-07-08.ccm4.t15.flac
3:06.00 32810444 --- -- ---xx dmb2011-07-08.ccm4.t16.flac
6:45.57 71576108 --- -- ---xx dmb2011-07-08.ccm4.t17.flac
2:50.02 29992748 --- -- ---xx dmb2011-07-08.ccm4.t18.flac
0:33.60 5962364 --- -- ---xx dmb2011-07-08.ccm4.t19.flac
5:15.37 55653068 --- -- ---xx dmb2011-07-08.ccm4.t20.flac
4:55.73 52209740 --- -- ---xx dmb2011-07-08.ccm4.t21.flac
16:20.37 172959068 --- -- ---xx dmb2011-07-08.ccm4.t22.flac
4:23.62 46539068 --- -- ---xx dmb2011-07-08.ccm4.t23.flac
6:44.00 71265644 --- -- ---xx dmb2011-07-08.ccm4.t24.flac
150:04.74 1588480704 B (totals for 24 files, 0.5136 overall compression ratio)
Attached Files
File Type: torrent dmb2011-07-08.ccm4.flac16.torrent (32.2 KB, 0 views) , size: 778.06 mb , seeders: 2 , completed: 69
Name Size
Name Ratio Completed Left Uploaded Up Speed Downloaded Last Announce
MtSkier is offline   Reply With Quote

  • Want to hide all ads on Ants? Click here
  • Old 10-29-2016, 12:04 PM   #2
    CraigFairlie
     
    Join Date: Oct 2016
    Posts: 19

    Shows Seen: 0

    Re: DMB2011-07-08.CCM4.flac16 (Crumbo)

    Thank you
    CraigFairlie is offline   Reply With Quote
    Reply

    Thread Tools
    Display Modes

    Posting Rules
    You may not post new threads
    You may not post replies
    You may not post attachments
    You may not edit your posts

    BB code is On
    Smilies are On
    [IMG] code is Off
    HTML code is On

    Forum Jump


    Want to hide all ads on Ants? Click here

    All times are GMT -4. The time now is 02:35 PM.


    Powered by vBulletin® Version 3.8.6
    Copyright ©2000 - 2019, Jelsoft Enterprises Ltd.


       
    Site LinksAbout AntsAnts MobileTweet Tweet
    Home
    Ants+
    Tour Central
    Search bar
    RSS Feeds
    About Us
    Contact Us
    The Ants Blog
    Advertise on Ants
    Privacy Policy
    Ants on your cell phone
    iAnts
    mobile news
    mobile setlists
    antslive!
    Ants' Twitter
    DMBLive Twitter
    Ants Facebook
    Ants Instagram
    Matt's Twitter
    Joe's Twitter